#TITLE:恋爱ing;
#SUBTITLE:;
#ARTIST:五月天;
#TITLETRANSLIT:;
#SUBTITLETRANSLIT:;
#ARTISTTRANSLIT:;
#CREDIT:;
#BANNER:ING_logo.jpg;
#BACKGROUND:ING_bg.jpg;
#LYRICSPATH:;
#CDTITLE:Lan.png;
#MUSIC:ing.mp3;
#OFFSET:-0.360;
#SAMPLESTART:100.000;
#SAMPLELENGTH:12.000;
#SELECTABLE:YES;
#BPMS:0.000=197.000;
#STOPS:;
#BGCHANGES:;
// cache tags:
#FIRSTBEAT:4.000;
#LASTBEAT:399.000;
#SONGFILENAME:Songs/Super Dancer Online/ing/ing.sm;
#HASMUSIC:1;
#HASBANNER:1;
#MUSICLENGTH:122.766;
// end cache tags

//---------------dance-single - sky----------------
#NOTES:
     dance-single:
     sky:
     Hard:
     10:
     0.902,0.975,1.000,0.000,0.098,548.000,213.000,0.000,0.000,13.000:

0000
0000
0000
0000
,
1000
0000
0100
0000
,
0010
0000
0001
1010
,
0001
0100
0000
0000
0011
0000
1000
0000
,
0001
0100
0000
0000
0011
0000
1000
0000
,
0001
0000
0100
0000
0000
0000
0000
0010
1101
0000
0000
0010
1101
0000
0000
0000
,
0000
1000
0010
0101
,
1000
0100
0001
0000
1100
0000
0101
0000
,
1000
0110
0001
0010
1100
0000
0101
0000
,
1000
0110
0001
0010
1100
0000
0101
0000
,
1100
0110
1101
0101
,
1000
0100
0001
0000
1100
0000
0101
0000
,
1000
0110
0001
0010
1100
0000
0101
0000
,
1000
0110
0001
0010
1100
0000
0101
1000
,
0100
0000
0000
0000
0000
0000
1100
0000
0000
0000
0000
0010
0101
0010
0000
1000
0000
0000
1011
0000
0000
0000
0000
0000
,
0010
0001
0100
0000
0011
0000
1001
0000
,
0010
1001
0100
1000
0011
0000
1001
0000
,
0010
1001
0100
1000
0011
0000
1001
0000
,
0011
0101
1011
0101
,
0010
1001
0100
1000
0011
0000
1001
0000
,
0010
1001
0100
1000
0011
0000
0110
0000
,
1000
0011
1000
0101
,
1000
0011
1000
0110
,
0000
1001
1001
1001
0110
1001
0000
0000
,
0001
0010
0100
0111
,
1000
0011
0000
0100
1001
0000
0011
0000
,
1000
0011
0000
0100
1001
0000
0011
0000
,
1000
0011
1000
0110
,
1011
0110
1011
0011
,
1010
0001
0000
0100
1010
0000
0011
0000
,
1000
0011
0000
0100
1010
0000
0011
0000
,
1000
0011
0100
0001
1010
0000
0011
1000
,
0110
0000
0000
0000
0000
0000
1011
0000
0000
0000
0000
0100
1001
0100
0000
1000
0000
0000
1001
0000
0000
0000
0000
0000
,
1000
0010
0000
0100
1001
0000
0010
0000
,
1000
0101
0000
0100
1010
0000
0010
0000
,
1000
0100
0010
0000
1000
0000
0011
0000
,
0100
1000
1010
0000
1001
0000
0011
0000
,
1010
0001
0000
0010
1000
0000
0010
0000
,
1000
0001
0000
0100
1010
0000
0001
0000
,
1000
0010
0000
0000
1001
0000
0010
0000
,
1001
0010
0000
0000
1010
0000
0001
0000
,
1000
0010
0000
0000
1010
0000
0010
0000
,
1001
0010
0000
0001
1010
0000
1000
0000
,
1100
0010
0001
0000
0000
0000
0000
0000
0001
1010
0001
0000
0000
0000
1000
0101
0000
1000
0000
0000
0000
0000
0000
0000
,
0000
0000
0000
0000
0000
0000
0011
0100
,
1010
0101
0010
0100
1010
0100
1001
0001
,
1010
0101
0010
0100
1010
0000
0011
0100
,
1010
0001
0000
0000
0011
0100
1010
0001
,
0000
0000
0011
0100
0000
0000
0001
0100
,
1000
0001
0010
1000
0001
0100
1000
0001
,
0010
1000
0010
0100
1000
0000
0001
0010
,
1000
0010
0100
1000
0001
0010
1000
0010
,
0100
1000
0001
0010
0100
0000
0010
0100
,
1000
0001
0010
0100
0001
0100
1000
0001
,
0010
0100
0001
0100
1000
0000
0001
0010
,
0100
0010
0100
1000
0010
0101
1000
0001
,
0010
0100
0001
0100
1000
0000
0010
0100
,
1000
0001
0100
1000
0010
0100
1000
0001
,
0100
1000
0010
0100
1000
0000
0001
0010
,
0100
0001
0010
1000
0010
0000
0001
0100
,
1000
0010
0100
1000
0010
0000
0101
0010
,
1001
0101
0010
1001
0101
0010
0101
0010
,
1001
0101
0010
1001
0101
0010
0101
0010
,
0101
0000
1001
0000
0010
0000
0100
0000
0001
1000
0000
0000
0101
0000
0000
0000
,
0100
1000
0001
0100
1010
0000
0101
0000
,
1000
0101
0010
0101
1000
0000
0101
0000
,
0100
1001
0010
1001
0100
0000
0010
0000
,
0100
0001
1000
0010
,
1000
0100
0001
0000
0100
0000
0001
0000
,
1000
0000
0000
0000
0000
0000
0001
0000
0000
0000
0100
0010
0100
0000
0000
0100
0000
0000
0001
0000
0000
0000
0000
0000
,
0100
0000
0000
0000
0000
0000
0010
0000
0000
1000
0000
0000
0000
0000
0000
0100
0010
0100
0001
0000
0000
0100
0000
0000
,
0011
0000
1000
0000
0100
0000
0010
0000
1100
0000
0010
0000
1000
0000
0010
0001
,
0100
0000
0001
0000
0010
0000
0001
0100
0010
0000
1000
0000
1001
0000
0000
0000
,
0000
0110
1001
0110
0000
1111
0000
0000
,
0001
0010
0100
0111
,
1000
0011
0000
0100
1001
0000
0011
0000
,
1000
0011
0000
0100
1001
0000
0011
0000
,
1000
0011
1000
0110
,
1011
0000
0000
0110
1001
0110
1001
0000
0000
0011
0000
0000
,
1010
0001
0000
0100
1010
0000
0011
0000
,
1000
0011
0000
0100
1010
0000
0011
0000
,
1000
0011
0100
0001
1010
0000
0011
1000
,
0110
0000
0000
0000
0000
0000
1011
0000
0000
0000
0000
0100
1001
0100
0000
1000
0000
0000
1001
0000
0000
0000
0000
0000
,
1000
0010
0000
0100
1001
0000
0010
0000
,
1000
0101
0000
0100
1010
0000
0010
0000
,
1000
0100
0010
0000
1000
0000
0011
0000
,
0100
1000
1010
0000
1001
0000
0011
0000
,
1010
0001
0000
0010
1000
0000
0010
0000
,
1000
0001
0000
0100
1010
0000
0001
0000
,
1000
0010
0000
0000
1001
0000
0010
0000
,
1001
0010
0000
0000
1010
0000
0001
0000
,
1000
0010
0000
0000
1010
0000
1100
0000
,
0110
0011
1001
0010
,
1010
0101
0000
0010
0100
0000
0010
0000
,
1010
0101
0000
0010
0100
0000
0010
0000
,
1010
0101
0000
0010
0101
0000
0010
0000
,
1001
0101
0000
1001
0101
0000
0011
0000
,
1001
0110
0000
0011
0101
0000
0001
0000
,
1001
0110
0000
1010
0101
0000
0110
0000
,
1000
0000
0110
0000
0000
0000
1010
0000
0101
0000
0000
0101
1010
0000
0000
0000
;
